<?xml version="1.0" standalone="no"?>
<!DOCTYPE svg PUBLIC "-//W3C//DTD SVG 1.1//EN" "http://www.w3.org/Graphics/SVG/1.1/DTD/svg11.dtd">
<svg xmlns="http://www.w3.org/2000/svg">
<metadata>Generated by Fontastic.me</metadata>
<defs>
<font id="exxicon" horiz-adv-x="512">
<font-face font-family="exxicon" units-per-em="512" ascent="480" descent="-32"/>
<missing-glyph horiz-adv-x="512" />

<glyph glyph-name="account" unicode="&#97;" d="M189 293c9-9 19-16 31-21 11-4 23-7 36-7 12 0 24 3 36 7 11 5 21 12 30 21 9 9 16 19 21 31 4 11 7 23 7 35 0 13-3 25-7 36-5 12-12 22-21 31-8 9-19 16-30 20-23 10-50 10-73 0-11-4-21-11-30-20-9-9-16-19-21-31-4-12-7-23-7-36 0-12 3-24 7-35 6-12 12-22 21-31z m-11 99c5 10 11 19 19 27 8 7 17 14 27 18 10 4 21 6 32 6 12 0 22-2 33-6 10-4 19-10 27-18 7-8 13-17 18-27 4-11 6-21 6-33 0-11-2-22-6-32-4-10-10-19-18-27-9-8-17-14-27-18-21-9-44-9-64 0-11 4-20 10-28 18-7 8-13 17-18 27-4 10-6 21-6 32 0 12 1 22 5 33z m78-176c-84 0-152-69-152-153 0-3 2-5 5-5l294 0c3 0 5 2 5 5 0 83-70 153-152 153z m-142-147c3 75 65 136 142 136 75 0 139-62 142-136z"/>
<glyph glyph-name="arrow-down" unicode="&#98;" d="M254 59c0 0 0 0 0 0 0 0 0 0 1 0 0 0 0 0 1 0 0 0 0 0 1 0 0 0 0 0 1 0 0 0 0 0 0 0 0 0 0 0 1 0 0 0 0 0 0 1l193 181c2 2 2 5 0 7-2 2-5 2-7 0l-184-173 0 374c0 3-2 5-5 5-3 0-5-2-5-5l0-374-184 174c-2 2-5 2-7 0-1-1-2-2-2-4 0-1 1-2 2-3l192-182c0 0 1 0 1 0 0 0 0 0 0 0 1-1 1-1 1-1z"/>
<glyph glyph-name="arrow-left" unicode="&#99;" d="M59 258c0 0 0 0 0-1 0 0 0 0 0-1 0-1 0-1 0-1 0-1 0-1 0-1 0 0 0-1 0-1 0 0 0 0 0 0 0 0 0-1 1-1l181-192c2-2 5-2 7 0 2 2 2 5 0 7l-172 184 373 0c3 0 5 2 5 5 0 3-2 5-5 5l-373 0 173 184c2 2 2 5 0 7-1 1-2 2-4 2-2 0-3-1-4-2l-181-192c0 0 0-1-1-1 0 0 0 0 0 0 0 0 0-1 0-1z"/>
<glyph glyph-name="arrow-right" unicode="&#100;" d="M453 254c0 0 0 0 0 0 0 0 0 0 0 1 0 0 0 0 0 1 0 1 0 1 0 1 0 1 0 1 0 1 0 0-1 1-1 1 0 0 0 0 0 0 0 0 0 1 0 1l-181 192c-2 2-6 2-8 0-2-2-2-5 0-7l173-184-372 0c-3 0-5-2-5-5 0-3 2-5 5-5l373 0-174-184c-2-2-2-5 0-7 1-1 2-2 4-2 2 0 3 1 4 2l181 192c0 0 0 1 0 1 0 0 0 0 0 0 1 0 1 1 1 1z"/>
<glyph glyph-name="arrow-up" unicode="&#101;" d="M258 453c-1 0-1 0-1 0-1 0-1 0-1 0-1 0-1 0-1 0-1 0-1 0-1 0 0 0-1 0-1 0 0 0 0 0 0 0 0 0-1 0-1-1l-192-181c-2-2-2-5 0-7 2-2 5-2 7 0l184 173 0-374c0-3 2-5 5-5 3 0 5 2 5 5l0 374 184-173c2-2 5-2 7 0 1 1 2 2 2 3 0 2-1 3-2 4l-193 181c0 0 0 0 0 1 0 0 0 0-1 0 0 0 0 0 0 0z"/>
<glyph glyph-name="calendar" unicode="&#102;" d="M384 424l-31 0 0 25c0 3-2 5-5 5-3 0-5-2-5-5l0-25-174 0 0 25c0 3-2 5-5 5-3 0-5-2-5-5l0-25-31 0c-34 0-61-35-61-78l0-210c0-43 27-78 61-78l255 0c35 0 62 34 62 78l0 210c0 43-27 78-61 78z m-256-10l31 0 0-29c0-4 2-6 5-6 3 0 5 2 5 6l0 29 174 0 0-29c0-4 2-6 5-6 3 0 5 2 5 6l0 29 31 0c28 0 51-31 51-68l0-10-358 0 0 10c0 37 23 68 51 68z m256-345l-256 0c-28 0-51 30-51 67l0 190 357 0 0-190c1-38-22-67-50-67z m-29 172c3 0 5 2 5 5 0 3-2 5-5 5l-42 0 0 26c0 3-2 5-5 5-3 0-5-2-5-5l0-26-94 0 0 26c0 3-2 5-5 5-3 0-5-2-5-5l0-26-42 0c-3 0-5-2-5-5 0-3 2-5 5-5l42 0 0-83-42 0c-3 0-5-2-5-5 0-3 2-6 5-6l42 0 0-25c0-3 2-5 5-5 3 0 5 2 5 5l0 25 94 0 0-25c0-3 2-5 5-5 3 0 5 2 5 5l0 25 42 0c3 0 5 3 5 6 0 3-2 5-5 5l-42 0 0 83z m-52-83l-94 0 0 83 94 0z"/>
<glyph glyph-name="cart" unicode="&#103;" d="M85 234l209 0c2 0 4 3 5 5l19 151c0 2 0 3-1 4-1 1-2 2-4 2l-241 0c-1 0-2-1-3-2-1-1-2-2-2-4l12-151c1-2 3-5 6-5z m222 152l-18-141-200 0-11 141z m139 64c-1 3-4 4-6 4l-40-12c-2 0-4-2-4-4l-36-266-289 0c-3 0-5-3-5-6 0-3 2-5 5-5l293 0c3 0 5 2 5 5l36 268 37 11c3-1 4 2 4 5z m-302-335c-7 0-13-2-18-7-5-6-8-12-8-19 0-7 3-13 8-18 5-5 11-8 18-8 7 0 13 3 19 8 5 5 7 11 7 18 0 7-2 13-7 19-6 5-12 7-19 7z m143 0c-7 0-13-2-18-7-6-6-8-12-8-19 0-7 2-13 8-18 5-5 11-8 18-8 7 0 13 3 18 8 6 5 8 11 8 18 0 7-2 13-8 19-5 5-11 7-18 7z"/>
<glyph glyph-name="service" unicode="&#104;" d="M439 191l-56 57c-2 3-10 9-19 9-7 1-13-2-18-7l-53-53c-4-4-10-6-15-4-10 3-27 11-50 34-24 24-33 41-35 51-2 5 0 11 4 15l54 53c6 7 8 15 5 24-2 6-5 11-7 12l-57 57c-19 19-49 19-69 0l-42-43c-29-28-56-97 82-234 80-81 137-105 177-105 27 0 46 12 57 24l42 41c19 20 19 51 0 69z m-7-61l-42-41c-63-63-175 35-220 81-45 45-144 157-82 220l42 43c8 7 18 11 27 11 10 0 20-4 28-11l56-57c0 0 11-12 1-22l-52-53c-7-8-10-17-7-26 5-16 17-34 37-55 20-20 39-33 55-37 9-3 19 0 25 6l54 54c3 3 6 4 9 4 6 0 12-5 13-6l56-56c15-16 15-40 0-55z"/>
<glyph glyph-name="home" unicode="&#105;" d="M258 332c-2 2-5 2-7 0l-128-128c-1-1-2-2-2-4l0-150c0-3 2-5 5-5l257 0c3 0 5 2 5 5l0 150c0 2-1 3-2 4z m120-277l-247 0 0 143 124 124 123-124z m74 219l-194 191c-2 2-5 2-7 0l-191-191c-2-2-2-5 0-7 1-1 2-2 3-2 1 0 3 1 4 2l188 188 190-188c2-2 5-2 7 0 2 2 2 5 0 7z"/>
<glyph glyph-name="photo" unicode="&#106;" d="M391 392l-271 0c-34 0-62-28-62-62l0-180c0-34 28-62 62-62l271 0c35 0 62 28 62 62l0 180c0 34-27 62-62 62z m52-242c0-29-23-52-52-52l-271 0c-29 0-52 23-52 52l0 180c0 28 23 51 52 51l271 0c29 0 52-23 52-51z m-150 160c-10 9-20 16-32 21-23 9-50 9-73 0-12-5-23-12-32-21-9-9-15-20-21-31-5-12-7-25-7-37 0-13 3-25 7-37 6-12 12-23 21-31 10-10 20-16 32-21 11-6 24-8 37-8 12 0 25 3 36 8 12 5 23 11 32 21 9 9 15 19 21 31 5 12 7 24 7 37 0 12-3 25-7 37-5 11-12 22-21 31z m11-102c-4-10-10-20-19-28-8-8-17-14-28-19-21-8-45-8-66 0-11 5-20 11-28 19-8 8-14 18-19 28-4 11-7 22-7 34 0 11 3 22 7 33 5 11 11 20 19 28 8 8 17 14 28 19 11 5 22 7 34 7 11 0 22-2 33-7 11-5 20-11 28-19 8-8 14-17 19-28 5-11 7-22 7-33 0-12-4-23-8-34z m43 206l63 0c3 0 5 2 5 5 0 3-2 5-5 5l-63 0c-3 0-5-2-5-5 0-3 3-5 5-5z m63-61l-63 0c-3 0-5-2-5-5 0-3 2-5 5-5l63 0c3 0 5 2 5 5 0 3-2 5-5 5z"/>
<glyph glyph-name="read-more" unicode="&#107;" d="M468 155l-142 245c-1 3-4 3-7 2l-197-113c-22-13-50-5-62 16-6 11-8 23-5 35 3 11 11 21 21 27l191 110c3 2 3 5 2 7-1 3-5 3-7 2l-191-110c-12-7-22-19-26-33-4-14-2-30 5-43l144-248c7-13 18-21 32-25 5-1 9-2 14-2 9 0 18 3 26 7l201 116c2 2 3 5 1 7z m-207-114c-10-5-22-7-32-4-11 3-20 11-27 20l-126 221c15-8 34-8 51 2l193 112 136-238z m1 387l-150-86c-2-2-3-5-2-8 1-1 3-2 5-2 1 0 1 0 3 0l149 87c3 1 3 4 2 7-1 3-5 3-7 2z"/>
<glyph glyph-name="ticket" unicode="&#108;" d="M476 330l-363 116c-2 0-3 0-4-1-1 0-2-1-3-3l-22-75c-1-2 1-6 4-6 25-8 38-34 30-60-4-13-12-23-23-29-10-6-23-6-34-3-2 1-3 1-4 0-1-1-2-2-3-3l-22-78c-1-2 1-5 4-6l363-116c1 0 1 0 2 0 1 0 1 0 2 1 1 0 2 1 3 3l22 77c1 3 0 6-3 6-24 8-38 35-31 60 4 13 12 24 24 29 10 6 22 7 34 3 1-1 2-1 4 0 1 1 2 2 2 3l23 76c0 2-2 5-5 6z m-27-74c-13 3-25 1-37-5-13-7-23-19-27-35-9-29 6-60 32-71l-20-68-354 113 20 69c13-4 26-1 37 4 13 7 23 20 28 35 8 31-5 60-33 72l19 65 354-113z m-280-34l141-45c2-1 5-1 7-1 3 0 6 1 9 2 6 3 10 8 11 14l21 70c3 12-3 25-15 29l-142 45c-5 2-11 1-16-2-6-2-10-7-11-13l-21-71c-3-12 3-25 16-28z m-5 25l20 70c1 4 3 7 6 8 2 1 3 1 5 1 1 0 3 0 4 0l141-45c7-2 10-9 8-16l-21-70c-1-4-3-7-6-8-2-2-5-2-8-1l-142 45c-6 2-9 9-7 16z"/>
<glyph glyph-name="transportation" unicode="&#109;" d="M175 287l161 0c3 0 5 2 5 5l0 62c0 7-2 16-6 21-9 13-30 28-79 28-50 0-71-15-79-28-4-7-7-14-7-21l0-62c0-3 3-5 5-5z m5 67c0 5 2 11 6 16 6 10 24 23 70 23 46 0 64-13 71-23 0-1 0-1 0-1 3-3 5-9 5-15l0-57-152 0z m227-155c-3 12-12 21-23 22l0 164c0 13-3 23-9 29-22 26-62 40-119 40-77 0-107-25-119-40-7-6-10-16-10-40l0-153c-12 0-21-11-21-23l0-60c0-13 10-23 22-23l3 0 0-41c0-8 6-15 15-15l30 0c9 0 15 6 15 15l0 41 132 0 0-41c0-8 6-15 15-15l30 0c9 0 15 6 15 15l0 41 3 0c12 0 22 10 22 23l0 60c-1 0-1 1-1 1z m-263 208c1 0 1 0 1 1 8 10 34 35 111 35 54 0 91-12 111-36 4-4 6-12 6-22l0-164-34 0 0 9c0 13-10 23-22 23l-126 0c-13 0-23-10-23-23l0-9-32 0 0 153c0 21 3 28 8 33z m36-333c0-2-1-5-5-5l-30 0c-4 0-5 2-5 5l0 41 40 0z m191 0c0-2-1-5-4-5l-31 0c-3 0-4 2-4 5l0 41 39 0 0-41z m26 64c0-7-6-13-13-13l-256 0c-7 0-13 6-13 13l0 60c0 7 6 12 13 12l46 0c3 0 5 2 5 6l0 13c0 8 5 13 12 13l127 0c6 0 12-5 12-13l0-13c0-4 2-6 5-6l48 0c7 0 13-5 14-13l0-59z m-243 52c-11 0-21-10-21-22 0-12 10-22 21-22 12 0 21 10 21 22 0 12-9 22-21 22z m202 0c-12 0-21-10-21-22 0-12 9-22 21-22 11 0 21 10 21 22 0 12-10 22-21 22z m-52 27l-98 0c-3 0-5-2-5-5 0-3 2-5 5-5l98 0c3 0 5 2 5 5 0 3-3 5-5 5z m0-28l-98 0c-3 0-5-2-5-5 0-3 2-5 5-5l98 0c3 0 5 2 5 5 0 3-3 5-5 5z m0-30l-98 0c-3 0-5-2-5-5 0-3 2-6 5-6l98 0c3 0 5 3 5 6 0 3-3 5-5 5z"/>
<glyph glyph-name="slider-left" unicode="&#111;" d="M367 28c2 0 3 1 4 2 3 2 3 6 0 8l-218 218 218 218c3 2 3 6 0 8-2 2-6 2-8 0l-222-222c-3-2-3-6 0-8l222-222c1-1 3-2 4-2z"/>
<glyph glyph-name="slider-right" unicode="&#112;" d="M145 28c-2 0-3 1-4 2-3 2-3 6 0 8l218 218-218 218c-3 2-3 6 0 8 2 2 6 2 8 0l222-222c3-2 3-6 0-8l-222-222c-1-1-3-2-4-2z"/>
<glyph glyph-name="chat" unicode="&#113;" d="M460 95c0 0-14 9-28 26 19 26 30 59 30 92 0 42-17 80-43 108-22 82-96 138-180 138-103 0-187-83-187-186 0-43 15-85 42-118-22-33-49-49-49-49-2-1-3-3-3-6 1-2 2-4 4-5 2 0 24-6 55-6 20 0 43 2 67 11 9-4 20-7 30-9 28-24 64-38 103-38 19 0 38 4 56 11 15-6 33-8 52-8 26 0 45 5 47 5 7 2 12 9 13 16 2 6-2 14-9 18z m-294 17c-39-16-82-12-103-8 11 9 29 24 44 48 1 2 1 5-1 7-27 32-42 72-42 114 0 96 79 175 175 175 72 0 136-44 162-109-27 21-62 35-99 35-89 0-161-72-161-161 0-40 15-77 40-105-4 1-7 2-10 4-1 0-3 0-5 0z m287-40c0 0-19-5-44-5-18 0-34 3-50 8-1 1-3 1-4 0-17-7-35-10-53-10-82 0-149 67-149 148 0 82 67 149 149 149 81 0 148-67 148-149 0-31-11-63-30-89-2-2-2-5 0-7 16-21 33-32 34-32 2-2 3-5 3-7 0-3-2-5-4-6z m-126 141c0-14-12-25-25-25-14 0-26 11-26 25 0 14 12 25 26 25 13 0 25-11 25-25z m-75 0c0-14-11-25-25-25-14 0-25 11-25 25 0 14 11 25 25 25 14 0 25-11 25-25z m149 0c0-14-11-25-25-25-14 0-25 11-25 25 0 14 11 25 25 25 14 0 25-11 25-25z"/>
<glyph glyph-name="check" unicode="&#114;" d="M208 97c-17 0-35 7-47 21 0 0-1 0-1 0l-96 96c0 1-1 2-2 2-21 27-18 66 7 89 26 24 67 21 90-5 1-1 2-1 3-3l46-46 147 146c0 0 1 1 1 1 0 1 0 1 0 1 27 24 67 21 91-5 11-12 17-29 16-46 0-17-8-33-21-44 0 0 0 0 0-1l-189-188c-1-1-1-2-2-2-12-11-27-16-43-16z m-134 124l95-95c0 0 1 0 1 0 19-21 52-23 73-4 1 1 1 1 2 2l0 0 190 189c0 0 0 0 0 1 10 9 16 22 17 36 1 13-4 27-13 37-19 22-52 23-74 4l-1-1c0 0-1-1-1-1l-150-150c-3-2-6-2-9 0l-50 51c0 0-1 0-1 0l0 1c-1 0-1 2-2 2-19 22-52 23-74 4-21-19-22-52-3-73 0-2 0-3 0-3z m365 88z"/>
<glyph glyph-name="close" unicode="&#115;" d="M264 256l144 143c2 3 2 6 0 9-3 2-6 2-9 0l-143-144-143 144c-3 2-6 2-9 0-2-3-2-6 0-9l144-143-144-143c-2-3-2-6 0-9 2-1 3-1 5-1 1 0 3 0 4 1l143 144 143-144c1-1 3-1 4-1 2 0 3 0 5 1 2 3 2 6 0 9z"/>
<glyph glyph-name="close-bold" unicode="&#116;" d="M370 74c-19 0-35 7-49 20l-65 65-65-65c-27-26-70-27-97 0-13 13-20 30-20 49 0 18 8 35 20 48l65 66-65 64c-13 14-20 30-20 49 0 18 8 35 20 48 13 14 30 20 49 20 18 0 35-7 48-20l65-65 65 65c27 26 70 26 97 0 26-27 26-70 0-97l-65-65 65-65c13-14 20-30 20-49 0-18-8-35-20-48-13-14-30-20-48-20z m-228 352c-15 0-29-6-40-17-11-10-17-24-17-40 0-15 6-29 17-40l70-69c2-2 2-6 0-8l-69-70c-11-11-17-24-17-40 0-16 6-29 17-40 21-22 57-22 79 1l70 69c2 2 6 2 8 0l70-69c11-11 24-17 40-17 16 0 29 6 40 17 11 10 17 24 17 40 0 15-6 29-17 40l-70 69c-2 2-2 6 0 8l69 70c23 22 23 57 0 79-22 23-57 23-79 0l-70-69c-2-2-6-2-8 0l-70 69c-11 11-25 17-40 17z"/>
<glyph glyph-name="currency" unicode="&#117;" d="M262 261l0 176c46-3 82-41 82-87 0-4 2-6 6-6 3 0 6 2 6 6 0 52-42 96-94 99l0 41c0 4-2 6-6 6-4 0-6-2-6-6l0-41c-52-3-94-46-94-99 0-77 74-96 94-99l0-177c-46 3-82 42-82 88 0 3-2 6-6 6-3 0-6-3-6-6 0-53 42-97 94-100l0-41c0-4 2-6 6-6 4 0 6 2 6 6l0 41c52 3 94 47 94 100 0 78-74 96-94 99z m-50 15c-29 17-44 41-44 74 0 46 36 84 82 87l0-174c-8 1-23 5-38 13z m50-201l0 174c8-1 23-4 38-13 29-15 44-41 44-74 0-46-36-84-82-87z"/>
<glyph glyph-name="facebook" unicode="&#118;" d="M291 28l0 208 71 0 10 81-81 0 0 52c0 23 7 39 41 39l43 0 0 73c-8 1-33 3-63 3-62 0-105-37-105-107l0-60-70 0 0-81 70 0 0-208z"/>
<glyph glyph-name="gallery" unicode="&#119;" d="M409 330l-39 0-29 68c-11 25-40 37-65 26l-209-89c-26-11-37-40-26-65l58-135c8-19 26-30 45-30 7 0 14 1 20 4 12-15 30-25 51-25l194 0c37 0 66 29 66 66l0 114c0 36-30 66-66 66z m-279-211c-9 4-17 11-20 20l-58 136c-5 9-5 19-1 28 4 10 11 17 20 21l208 89c9 4 20 4 29 1 9-4 17-11 21-20l27-64-141 0c-36 0-66-30-66-66l0-114c0-11 3-22 8-31-9-3-18-3-27 0z m333 31c0-30-24-54-54-54l-194 0c-30 0-54 24-54 54l0 114c0 30 24 54 54 54l194 0c30 0 54-24 54-54l0-114z m-222 68c17 0 32 14 32 31 0 18-15 32-32 32-17 0-32-14-32-32 0-17 15-31 32-31z m0 51c11 0 20-9 20-20 0-10-9-19-20-19-11 0-20 9-20 19 0 11 9 20 20 20z m127-44c-5 8-14 12-23 13 0 0 0 0-1 0-9 0-17-4-23-12l-19-28-2 2c-6 5-13 8-21 8-7 0-15-4-20-10l-50-56c-2-2-2-4-1-7 1-2 3-3 5-3l205 0c2 0 4 1 5 3 1 2 1 4 0 6z m-140-81l41 47c3 3 7 5 11 5 4 0 8-2 11-5l7-7c1-1 3-2 5-2 2 0 3 1 4 3l24 34c3 4 8 6 13 6 5 0 10-2 12-7l49-74-177 0z"/>
<glyph glyph-name="google-plus" unicode="&#120;" d="M192 278l0-44c0 0 42 0 60 0-10-29-24-45-60-45-37 0-65 30-65 66 0 37 29 66 65 66 19 0 32-6 43-16 9 9 8 10 32 33-20 18-46 28-75 28-62 0-112-49-112-111 0-62 50-112 112-112 92 0 114 80 107 133-22 2-107 2-107 2z m201-2l0 38-28 0 0-38-39 0 0-28 39 0 0-39 28 0 0 39 38 0 0 28z"/>
<glyph glyph-name="less" unicode="&#121;" d="M465 250l-418 0c-3 0-6 2-6 6 0 4 3 6 6 6l418 0c3 0 6-2 6-6 0-4-3-6-6-6z"/>
<glyph glyph-name="mail" unicode="&#122;" d="M423 409l-334 0c-19 0-36-15-36-35l0-236c0-19 16-35 36-35l334 0c19 0 36 15 36 35l0 236c0 20-16 35-36 35z m-358-35c0 3 1 5 2 7 0-1 0-3 1-4l128-122-127-121c-2-2-2-4-2-6-1 3-2 7-2 10l0 236z m382-236c0-13-11-23-24-23l-334 0c-9 0-16 4-21 11 0 0 0 0 1 0 1-1 3-2 4-2 1 0 3 1 4 2l128 121 47-44c1-2 2-2 4-2 1 0 3 0 4 2l46 43 127-121c2-1 3-1 5-1 1 0 3 0 4 1 2 3 2 6 0 9l-127 120 127 123c2 2 2 5 0 8-3 2-6 2-9 0l-177-170-179 170c-3 3-6 3-9 0 4 8 12 13 21 13l334 0c13 0 24-10 24-23z"/>
<glyph glyph-name="map" unicode="&#65;" d="M351 432c-26 28-58 42-95 42-37 0-69-14-95-42-26-29-39-63-39-103 0-41 10-87 33-134 21-48 43-86 64-113l32-42c1-1 3-2 5-2 2 0 4 0 5 2 9 12 21 27 35 46 15 19 34 54 58 105 24 51 36 97 36 139 0 39-13 73-39 102z m-8-237c-23-49-43-84-56-102-12-16-22-29-30-39l-28 35c-21 27-42 64-63 111-21 46-32 90-32 129 0 37 12 69 36 94 24 26 53 39 87 39 33 0 63-14 86-39 24-26 36-57 36-94-1-39-13-84-36-134z m-87 218c-22 0-40-8-55-25-15-16-23-35-23-58 0-23 8-43 23-59 15-16 33-25 55-25 22 0 40 9 55 25 15 16 23 36 23 59 0 23-8 42-23 58-15 17-33 25-55 25z m46-135c-13-14-28-21-46-21-18 0-33 7-46 21-13 15-20 31-20 51 0 20 7 37 20 51 13 14 28 21 46 21 18 0 33-7 46-21 13-14 20-31 20-51 0-20-7-36-20-51z"/>
<glyph glyph-name="play" unicode="&#66;" d="M111 77c-8 0-17 3-25 8-13 8-21 22-21 38l0 266c0 16 8 30 21 38 14 9 30 10 44 3l290-133c16-7 27-23 27-41 0-18-11-34-27-41l-290-133c-6-3-12-5-19-5z m0 346c-7 0-13-2-18-6-10-6-16-17-16-28l0-265c0-12 6-23 16-29 10-6 22-7 32-2l290 132c12 6 20 18 20 31 0 13-7 25-20 31l-290 133c-4 1-9 3-14 3z"/>
<glyph glyph-name="youtube" unicode="&#67;" d="M119 113l274 142-274 144z m0 286l241-161 33 17z"/>
<glyph glyph-name="twitter" unicode="&#68;" d="M191 114c132 0 204 109 204 204 0 3 0 6 0 9 14 10 26 23 36 37-13-6-26-10-41-11 15 9 26 22 31 39-13-8-29-14-45-17-13 13-32 22-52 22-40 0-72-32-72-71 0-6 0-12 2-17-60 3-113 32-148 75-6-10-9-22-9-36 0-24 12-46 31-60-12 1-22 4-32 9 0 0 0 0 0-1 0-35 25-63 57-70-6-2-12-2-19-2-4 0-9 0-13 1 9-29 35-49 67-50-24-19-55-31-88-31-6 0-12 1-18 2 31-20 68-32 109-32"/>
<glyph glyph-name="more" unicode="&#69;" d="M465 262l-203 0 0 203c0 3-2 6-6 6-4 0-6-3-6-6l0-203-203 0c-3 0-6-2-6-6 0-4 3-6 6-6l203 0 0-203c0-3 2-6 6-6 4 0 6 3 6 6l0 203 203 0c3 0 6 2 6 6 0 4-3 6-6 6z"/>
<glyph glyph-name="question-marks" unicode="&#110;" d="M256 161c-4 0-6 2-6 6l0 21c0 31 16 60 43 76 0 0 0 0 0 0 18 12 28 32 28 53 0 36-29 65-65 65-35 0-65-29-65-65 0-3-2-6-6-6-3 0-6 3-6 6 0 42 34 77 77 77 42 0 77-34 77-77 0-25-13-49-34-63 0 0 0-1-1-1-23-14-36-38-36-65l0-21c0-4-2-6-6-6z m0-43c-4 0-6 3-6 6l0 14c0 4 2 6 6 6 4 0 6-2 6-6l0-14c0-3-3-6-6-6z m0-81c-121 0-219 98-219 219 0 121 98 219 219 219 121 0 219-98 219-219 0-121-98-219-219-219z m0 426c-114 0-207-93-207-207 0-114 93-207 207-207 114 0 207 93 207 207 0 114-93 207-207 207z"/>
<glyph glyph-name="slider-down" unicode="&#70;" d="M482 363l-222-222c-2-3-6-3-8 0l-222 222c-2 2-2 6 0 8 2 3 6 3 8 0l218-218 218 218c2 3 6 3 8 0 1-1 2-2 2-4 0-1-1-3-2-4z"/>
<glyph glyph-name="slider-up" unicode="&#71;" d="M484 145c0-2-1-3-2-4-2-3-6-3-8 0l-218 218-218-218c-2-3-6-3-8 0-2 2-2 6 0 8l222 222c2 3 6 3 8 0l222-222c1-1 2-3 2-4z"/>
</font>
</defs>
</svg>
